#TITLE:亚特兰提斯少女;
#SUBTITLE:;
#ARTIST:宝儿(BOA);
#TITLETRANSLIT:;
#SUBTITLETRANSLIT:;
#ARTISTTRANSLIT:;
#CREDIT:;
#BANNER:˹Ů-logo.jpg;
#BACKGROUND:˹Ů.jpg;
#LYRICSPATH:;
#CDTITLE:Lan.png;
#MUSIC:˹Ů.mp3;
#OFFSET:-0.100;
#SAMPLESTART:100.000;
#SAMPLELENGTH:12.000;
#SELECTABLE:YES;
#BPMS:0.000=110.020;
#STOPS:;
#BGCHANGES:;
// cache tags:
#FIRSTBEAT:4.000;
#LASTBEAT:300.000;
#SONGFILENAME:Songs/lan sky/Atlantis Girl/˹Ů.sm;
#HASMUSIC:1;
#HASBANNER:1;
#MUSICLENGTH:167.252;
// end cache tags

//---------------dance-single - 标准----------------
#NOTES:
     dance-single:
     标准:
     Hard:
     7:
     0.606,0.695,1.000,0.078,0.281,491.000,194.000,13.000,0.000,11.000:


0000
0000
0000
0000
,
0100
0010
0001
1000
0000
0000
0000
0000
,
1000
0100
0010
0001
0000
0000
0000
0000
,
0010
0100
1000
0001
0000
0000
0000
0000
,
0001
0010
0100
1000
0000
0010
0000
0000
,
0010
0001
1000
0100
0000
0000
0000
0000
,
0010
1000
0100
0001
0000
0000
0000
0000
,
0001
1000
0100
0001
0000
0000
0000
0000
,
0100
0001
1000
0010
0000
1000
0010
0000
,
1001
0000
0000
0000
0110
0000
0000
1000
0100
0010
1001
0000
0101
0000
0010
0100
,
1010
0000
0000
0000
0101
0000
0000
0100
0011
0000
1000
0010
0100
0000
0010
0001
,
1020
0000
0000
0000
1000
0100
0001
0100
0000
0000
0100
0000
1000
0000
0000
0030
,
1001
0000
0000
0000
0210
0000
0000
0010
0000
0000
0001
0300
1000
0000
0100
0010
,
0101
0000
0000
0000
1010
0000
0000
0100
0001
0000
0010
0100
1000
0000
0001
0000
,
1020
0000
0000
0000
0100
0000
0000
0001
0000
0000
0100
0000
1000
0000
0000
0030
,
0101
0000
0000
0000
1010
0000
0000
0100
0010
0001
1010
0000
0101
0000
0000
0000
,
1001
0000
0000
0000
0110
0000
0000
0010
0100
0010
0001
1000
0100
0010
0001
0000
,
1010
0000
1010
0000
0101
0000
1010
0000
0000
0000
0100
0010
0101
0000
0000
0000
,
1001
0000
0000
0100
0010
0000
0101
0000
0010
0100
1000
0000
0101
0000
0010
0000
,
1001
0000
0000
0100
0001
0000
1010
0000
0100
0000
0000
0000
1001
0000
0000
0000
,
0110
0000
1000
0000
0011
0000
1010
0000
0100
0010
0101
0000
1010
0000
0000
0000
,
0102
0000
0000
0000
0010
0000
1000
0003
0100
0000
0010
0000
1001
0000
0000
0000
,
0101
0000
0000
0010
1000
0000
0101
0000
1000
0100
0010
0000
0101
0000
0000
0000
,
1010
1010
0101
0101
,
1010
0000
1010
0000
0111
0000
0111
0000
1110
0000
0000
0000
1000
0100
0010
0001
,
1010
0000
1010
0000
0100
0000
0001
0010
1100
0000
0101
0000
0010
0000
0000
0000
,
1001
0100
0001
1000
0101
1010
0101
0000
,
1010
0000
1001
0000
0100
0000
0010
0100
1001
0000
1010
0000
0100
0000
0010
0001
,
1010
0000
0000
0100
0000
0000
1010
0000
0001
0000
0100
0010
1000
0100
0001
0000
,
1010
0000
1010
0000
0100
0000
0001
0010
1100
0000
0101
0000
0010
0000
0100
0010
,
0101
0000
0010
0000
0100
0000
1000
0000
0101
0000
1010
0000
0100
0000
0001
0010
,
1100
0000
0000
0010
0000
0000
0101
0000
1000
0000
0010
0000
0101
0000
0000
0000
,
1010
1010
0101
0101
1011
0000
0100
0000
,
0101
0000
0000
0000
1001
0000
0000
0100
0010
0001
1010
0000
0101
0000
0010
0100
,
1010
0000
0000
0100
0001
0000
0000
0100
0000
0000
1001
0000
0101
0010
0001
0000
,
1010
0000
0000
0000
1001
0000
0100
0010
0001
0000
1010
0000
0101
0000
0010
0000
,
1001
0000
0000
0100
0010
0000
0001
1000
0000
0000
0100
0010
0001
0010
0100
0000
,
1010
0000
0100
0000
0001
0000
0010
0100
1000
0000
0101
0000
1010
0000
0000
0000
,
1001
0000
0000
0100
0010
0000
0001
1000
0000
0000
0101
0000
1010
0000
0000
0000
,
1001
0000
0000
0000
0101
0000
0000
1000
0100
0010
0101
0000
1010
0000
0000
0000
,
0101
0101
1010
1010
0111
0000
0100
0000
,
0000
0000
0010
2000
0000
0000
0000
3000
,
0000
0000
0100
0002
0000
0000
0000
0003
,
0010
0000
0000
0000
0000
0000
0200
0000
0000
0000
0000
0000
0000
0000
0000
0300
,
0000
0000
1000
0100
0010
0001
0010
0000
0100
0010
1000
0000
0000
0000
0000
0000
,
0100
0000
0000
0001
0000
0000
1000
0000
0010
0000
0000
0100
0000
0000
0001
0000
,
1000
0000
0000
0100
0000
0000
0010
0000
0000
0000
0000
0000
0001
0000
0010
0000
,
1000
0000
0000
0100
0000
0000
0001
0000
0000
0000
0010
0000
1000
0000
0100
0000
,
1011
0000
0000
0000
0000
0000
0000
0000
0100
0010
0001
0010
0101
0000
0000
0000
,
1001
0000
1000
0000
1010
0000
1001
0000
1001
0000
1000
0000
1010
0000
0100
0010
,
0101
0000
0001
0000
0011
0000
0101
0000
0101
0000
0001
0000
0011
0000
0001
0010
,
0101
0100
0110
0101
0101
0100
0110
0100
,
1001
0000
0000
0001
0100
0000
1010
0000
0100
0010
0001
0010
1101
0000
0000
0000
,
1001
0000
1000
0000
1010
0000
1001
0000
1001
0000
1000
0000
1010
0000
0100
0010
,
0101
0000
0001
0000
1001
0000
0101
0000
0101
0000
0001
0000
0001
0000
1000
0010
,
0101
0000
0010
0000
0000
0000
1000
0100
1010
0000
0000
0000
0000
0000
0000
0000
,
0101
0101
1010
1010
0222
0000
0000
0000
,
0000
0000
0000
0000
0000
0000
0000
0000
0000
0000
0000
0333
1000
0000
0000
0000
,
0101
0101
0000
0000
1010
1010
0000
0000
,
1001
1001
0000
0000
0110
0110
0000
0000
,
1010
1010
0000
0000
0101
0101
0000
0000
,
1011
0000
0000
0100
0000
0000
0001
0000
2000
0000
0000
0000
0000
0000
0000
3000
,
0101
0000
0101
0000
0000
0000
0010
0100
1010
0000
1010
0000
0000
0000
0100
0010
,
1001
1001
0000
0000
0110
0110
0001
0000
,
1010
0000
0000
0100
0001
0000
1010
0000
0100
0000
0001
0010
1100
0000
0001
0000
,
1010
1010
0101
0101
1011
0000
0100
0000
,
1001
0000
0000
0000
0101
0000
0000
0010
0000
0000
1000
0000
0101
0000
0010
0100
,
1010
0000
0000
0000
0101
0000
0000
1010
0000
0000
0101
0000
0010
0100
1000
0000
,
1001
0000
0000
0000
1010
0000
0100
0010
0001
0000
1010
0000
1001
0000
0000
0000
,
0101
0000
0000
0010
1000
0000
0001
0100
0000
0000
0010
0001
0010
0100
1000
0000
,
0101
0000
0010
0000
1000
0000
0100
0010
0001
0000
0010
0100
1000
0100
0010
0000
,
0101
0000
0000
0010
1000
0000
0100
0001
0000
0000
1010
0000
0101
0000
0000
0000
,
1001
0000
0000
0100
0001
0000
0000
1010
0000
0000
0001
0010
0100
1000
0100
0000
,
1010
1010
0101
0101
1011
0000
0000
0000
,
0202
0000
0000
0000
,
0303
0000
0000
0000
;
